<?xml version="1.0" standalone="no"?>
<!DOCTYPE svg PUBLIC "-//W3C//DTD SVG 1.1//EN" "http://www.w3.org/Graphics/SVG/1.1/DTD/svg11.dtd" >
<svg xmlns="http://www.w3.org/2000/svg">
<metadata>
This is a custom SVG font generated by IcoMoon.
<iconset grid="20"></iconset>
</metadata>
<defs>
<font id="toolbar" horiz-adv-x="640" >
<font-face units-per-em="640" ascent="608" descent="-32" />
<missing-glyph horiz-adv-x="640" />
<glyph class="hidden" unicode="&#xf000;" d="M0,608L 640 -32L0 -32 z" horiz-adv-x="0" />
<glyph unicode="&#xe000;" d="M 557.574,490.426l-75.146,75.148C 459.091,588.909, 413,608, 380,608L 100,608 C 67,608, 40,581, 40,548l0-520 c0-33, 27-60, 60-60l 440,0 
	c 33,0, 60,27, 60,60L 600,388 C 600,421, 580.909,467.091, 557.574,490.426z M 400,523.274c 1.373-0.503, 2.782-1.050, 4.224-1.647
	c 11.287-4.676, 19.124-10.11, 21.635-12.621l 75.148-75.149c 2.511-2.511, 7.945-10.346, 12.621-21.634c 0.597-1.441, 1.145-2.851, 1.647-4.223
	L 400,408 L 400,523.274 z M 520,48L 120,48 L 120,528 l 240,0 l0-160 l 160,0 L 520,48 z" data-tags="file, paper, page, new, empty, blank, document" />
<glyph unicode="&#xe001;" d="M 560,488 L 80,488 L 80,88 L 560,88 L 560,488 Z M 640,568 L 640,568 L 640,8 L 0,8 L 0,568 L 640,568 ZM 520,128 L 120,128 L 120,208 L 240,408 L 404.375,208 L 520,288 L 520,248 ZM 400,388A60,60 3060 1 1 520,388A60,60 3060 1 1 400,388z" data-tags="image, picture, photo, graphic" />
<glyph unicode="&#xe002;" d="M 620.164,63.378L 468.569,192.311c-15.671,14.104-32.431,20.579-45.97,19.954C 458.384,254.183, 480,308.564, 480,368
		C 480,500.549, 372.549,608, 240,608C 107.453,608,0,500.549,0,368c0-132.549, 107.451-240, 240-240c 59.436,0, 113.817,21.616, 155.735,57.402
		c-0.625-13.539, 5.85-30.299, 19.954-45.97l 128.934-151.595c 22.076-24.529, 58.139-26.596, 80.138-4.598S 644.692,41.301, 620.164,63.378
		z M 240,208c-88.365,0-160,71.635-160,160S 151.635,528, 240,528s 160-71.635, 160-160S 328.366,208, 240,208zM 120,408L 360,408L 360,328L 120,328z" data-tags="zoom out, smaller, scale, reduce" />
<glyph unicode="&#xe003;" d="M 620.164,63.378L 468.569,192.311c-15.671,14.104-32.431,20.579-45.97,19.954C 458.384,254.183, 480,308.564, 480,368
		C 480,500.549, 372.549,608, 240,608C 107.453,608,0,500.549,0,368c0-132.549, 107.451-240, 240-240c 59.436,0, 113.817,21.616, 155.735,57.402
		c-0.625-13.539, 5.85-30.299, 19.954-45.97l 128.934-151.595c 22.076-24.529, 58.139-26.596, 80.138-4.598S 644.692,41.301, 620.164,63.378
		z M 240,208c-88.365,0-160,71.635-160,160S 151.635,528, 240,528s 160-71.635, 160-160S 328.366,208, 240,208zM 280,488L 200,488L 200,408L 120,408L 120,328L 200,328L 200,248L 280,248L 280,328L 360,328L 360,408L 280,408 	z" data-tags="zoom in, enlarge, scale" />
<glyph unicode="&#xe004;" d="M 640,608 L 640,348 L 540,448 L 420,328 L 360,388 L 480,508 L 380,608 ZM 280,188 L 160,68 L 260-32 L 0-32 L 0,228 L 100,128 L 220,248 Z" data-tags="expand, enlarge, maximize, fullscreen" />
<glyph unicode="&#xe005;" d="M 640,608 L 640,368 L 553.587,454.412 L 421.087,321.913 L 353.913,389.088 L 486.413,521.588 L 400,608 ZM 153.588,521.588 L 286.087,389.088 L 218.912,321.913 L 86.412,454.412 L 0,368 L 0,608 L 240,608 ZM 553.587,121.587 L 640,208 L 640-32 L 400-32 L 486.413,54.413 L 353.913,186.913 L 421.087,254.087 ZM 286.087,186.913 L 153.588,54.413 L 240-32 L 0-32 L 0,208 L 86.412,121.587 L 218.912,254.087 Z" data-tags="expand, enlarge, maximize, fullscreen" />
<glyph unicode="&#xe006;" d="M 520,8L 640,328L 120,328L0,8 zM 80,368 L 0,8 L 0,528 L 180,528 L 260,448 L 520,448 L 520,368 Z" data-tags="folder-open, directory, category, browse" />
<glyph unicode="&#xe007;" d="M 0,408 L 640,408 L 600,8 L 40,8 L 0,408 Z M 580,488 L 600,448 L 40,448 L 80,528 L 300,528 L 320,488 L 580,488 Z" data-tags="folder, directory, category, browse" />
<glyph unicode="&#xe008;" d="M 583.619,226.594c-33.579,58.159-13.385,132.69, 45.095,166.555l-62.891,108.933c-17.969-10.534-38.86-16.574-61.154-16.574
	c-67.21,0-121.692,54.841-121.692,122.494L 257.19,608.001 c 0.166-20.881-5.046-42.051-16.224-61.407
	c-33.578-58.16-108.222-77.939-166.789-44.224L 11.287,393.437c 18.106-10.295, 33.781-25.367, 44.929-44.674
	c 33.524-58.068, 13.445-132.45-44.817-166.39l 62.891-108.933c 17.906,10.435, 38.697,16.409, 60.875,16.409
	c 66.998,0, 121.34-54.495, 121.688-121.849l 125.784,0 c-0.054,20.671, 5.17,41.606, 16.229,60.761
	c 33.523,58.066, 107.985,77.871, 166.509,44.383l 62.891,108.931C 610.277,192.368, 594.707,207.387, 583.619,226.594z M 320,158.418
	c-71.567,0-129.585,58.015-129.585,129.584c0,71.567, 58.016,129.584, 129.585,129.584c 71.567,0, 129.582-58.016, 129.582-129.584
	C 449.581,216.433, 391.567,158.418, 320,158.418z" data-tags="cog, preferences, settings, gear, generate, control, options" />
<glyph unicode="&#xe009;" d="M 40,488L 600,488L 600,368L 40,368zM 40,328L 600,328L 600,208L 40,208zM 40,168L 600,168L 600,48L 40,48z" data-tags="menu, list, items, lines, options" />
<glyph unicode="&#xe00a;" d="M 626.834,96.827l-287.845,246.725C 352.394,368.739, 360,397.479, 360,428C 360,527.411, 279.411,608, 180,608
	c-18.184,0-35.733-2.708-52.279-7.721l 103.994-103.994c 15.556-15.556, 15.556-41.013,0-56.569l-63.431-63.431
	c-15.556-15.556-41.013-15.556-56.569,0L 7.721,480.279C 2.708,463.732,0,446.184,0,428c0-99.411, 80.589-180, 180-180
	c 30.521,0, 59.261,7.606, 84.448,21.012l 246.725-287.845c 14.318-16.703, 38.76-17.641, 54.315-2.086l 63.433,63.433
	C 644.475,58.069, 643.536,82.51, 626.834,96.827z" data-tags="wrench, settings, control, tool, options, preferences, fix" />
<glyph unicode="&#xe00b;" d="M 280,528l0,10 c0,16.5-13.5,30-30,30l-100,0 c-16.5,0-30-13.5-30-30l0-10 L0,528 l0-80 l 120,0 l0-10 c0-16.5, 13.5-30, 30-30l 100,0 c 16.5,0, 30,13.5, 30,30l0,10 
		l 360,0 L 640,528 L 280,528 z M 160,448L 160,528 l 80,0 l0-80 L 160,448 zM 520,338c0,16.5-13.5,30-30,30l-100,0 c-16.5,0-30-13.5-30-30l0-10 L0,328 l0-80 l 360,0 l0-10 c0-16.5, 13.5-30, 30-30l 100,0 c 16.5,0, 30,13.5, 30,30l0,10 
		l 120,0 l0,80 l-120,0 L 520,338 z M 400,248l0,80 l 80,0 l0-80 L 400,248 zM 280,138c0,16.5-13.5,30-30,30l-100,0 c-16.5,0-30-13.5-30-30l0-10 L0,128 l0-80 l 120,0 l0-10 c0-16.5, 13.5-30, 30-30l 100,0 c 16.5,0, 30,13.5, 30,30l0,10 
		l 360,0 l0,80 L 280,128 L 280,138 z M 160,48l0,80 l 80,0 l0-80 L 160,48 z" data-tags="settings, preferences, options" />
<glyph unicode="&#xe00c;" d="M 546.264,514.263C 488.356,572.172, 408.366,608, 320,608C 182.82,608, 65.819,521.67, 20.314,400.382l 74.922-28.096
		C 129.364,463.252, 217.115,528, 320,528c 66.275,0, 126.263-26.875, 169.691-70.309L 400,368l 240,0 L 640,608 L 546.264,514.263zM 320,48c-66.275,0-126.266,26.87-169.695,70.305L 240,208L0,208 l0-240 l 93.746,93.746C 151.65,3.832, 231.633-32, 320-32
		c 137.181,0, 254.183,86.33, 299.688,207.618l-74.922,28.096C 510.637,112.748, 422.886,48, 320,48z" data-tags="loop, repeat, reload, refresh, update, upgrade, synchronize, media control, arrows" />
<glyph unicode="&#xe00d;" d="M 640,448c0,88.32-71.72,160-160,160c-59.68,0-111.24-33.16-138.76-81.72c0,0.040, 0.080,0.080, 0.080,0.12
		c-7.34,0.7-14.46,2.22-21.96,2.22c-132.58,0-240-107.42-240-240c0-50.54, 15.78-97.34, 42.42-135.94L0-32l 185.78,121.24
		c 38.2-25.62, 84.14-40.62, 133.6-40.62c 132.58,0, 240,107.42, 240,240c0,6.92-1.4,13.4-2.040,20.16C 606.4,336.12, 640,387.88, 640,448z
		 M 319.38,128.62c-88.28,0-160,71.72-160,160c0,88.24, 71.72,160, 160,160c 0.24,0, 0.46-0.080, 0.62-0.080c0,0.16, 0.080,0.28, 0.080,0.4
		C 320.080,448.62, 320,448.32, 320,448c0-13.9, 2.34-27.1, 5.62-39.96l-63.44-63.48c-31.24-31.24-31.24-81.88,0-113.12s 81.88-31.24, 113.12,0
		l 62.82,62.82c 13.2-3.6, 26.88-6.1, 41.18-6.18C 478.98,200.040, 407.42,128.62, 319.38,128.62z M 480,368c-44.060,0-80,35.9-80,80
		s 35.94,80, 80,80s 80-35.9, 80-80S 524.060,368, 480,368z" data-tags="pin, location" />
<glyph unicode="&#xe00e;" d="M 239.52,288c0-8.256, 8.384-14.144, 8.384-14.144l 232.8-146.208C 497.952,116.352, 512,124.672, 512,146.048L 512,429.952 
		c0,21.408-14.048,29.728-31.296,18.432l-232.8-146.24C 247.904,302.112, 239.52,296.256, 239.52,288z M 128,436.576l0-297.152 c0-28.416, 19.584-37.12, 48-37.12
		S 224,111.008, 224,139.392L 224,436.576 c0,28.448-19.584,37.152-48,37.152S 128,464.992, 128,436.576z" data-tags="first, start, media control" />
<glyph unicode="&#xe00f;" d="M 392.096,302.144l-232.8,146.24C 142.080,459.648, 128,451.36, 128,429.92l0-283.872 c0-21.44, 14.080-29.696, 31.296-18.432l 232.8,146.208
		c0,0, 8.416,5.92, 8.416,14.144S 392.096,302.144, 392.096,302.144z M 464,473.728c-28.416,0-48-8.736-48-37.152l0-297.152 
		c0-28.448, 19.584-37.184, 48-37.184s 48,8.736, 48,37.184L 512,436.576 C 512,464.992, 492.416,473.728, 464,473.728z" data-tags="last, end, media control" />
<glyph unicode="&#xe011;" d="M 614.4,288c0,162.592-131.808,294.4-294.4,294.4S 25.6,450.592, 25.6,288c0-162.624, 131.808-294.432, 294.4-294.432S 614.4,125.408, 614.4,288z M 89.6,288
		c0,127.232, 103.168,230.4, 230.4,230.4s 230.4-103.168, 230.4-230.4c0-127.264-103.168-230.432-230.4-230.432S 89.6,160.736, 89.6,288z M 443.2,230.4L 443.2,345.6 L 312.32,345.6 L 312.32,417.6 
		L 190.4,288l 121.92-129.6L 312.32,230.4 L 443.2,230.4 z" data-tags="arrow-left, left, previous" />
<glyph unicode="&#xe010;" d="M 25.6,288c0-162.592, 131.84-294.4, 294.4-294.4c 162.592,0, 294.4,131.808, 294.4,294.4C 614.4,450.592, 482.592,582.4, 320,582.4C 157.408,582.4, 25.6,450.592, 25.6,288z
		 M 550.4,288c0-127.232-103.168-230.4-230.4-230.4S 89.6,160.736, 89.6,288C 89.6,415.264, 192.736,518.4, 320,518.4S 550.4,415.264, 550.4,288z M 196.8,345.6l0-115.2 l 130.88,0 l0-72 
		L 449.6,288l-121.92,129.6L 327.68,345.6 L 196.8,345.6 z" data-tags="arrow-right, right, next" />
<glyph unicode="&#xe012;" d="M 447.968,435.2L 448,140.8L 192,288 z" data-tags="arrow-left, left, triangle, previous" />
<glyph unicode="&#xe013;" d="M 192.032,435.2L 192,140.8L 448,288 z" data-tags="arrow-right, triangle, right, next" />
<glyph unicode="&#xe014;" d="M 319.52,531.2L 319.52,408.704L 544.064,408.736L 544.064,167.072L 319.52,167.072L 319.52,44.8L 76.864,288 	z" data-tags="arrow-left, left, previous" />
<glyph unicode="&#xe015;" d="M 320.48,531.2L 320.48,408.704L 95.936,408.736L 95.936,167.072L 320.48,167.072L 320.48,44.8L 563.136,288 	z" data-tags="arrow-right, right, next" />
<glyph unicode="&#xe016;" d="M 44.768,288c0-8.928, 8.928-15.328, 8.928-15.328l 238.816-158.368c 18.304-12.256, 33.344-3.264, 33.344,19.968L 325.856,441.76 
		c0,23.232-15.040,32.192-33.344,20l-238.816-158.4C 53.728,303.328, 44.768,296.928, 44.768,288z M 335.2,288c0-8.928, 8.928-15.328, 8.928-15.328
		l 230.496-158.368c 18.336-12.256, 33.344-3.264, 33.344,19.968L 607.968,441.76 c0,23.232-15.008,32.192-33.344,20l-230.496-158.4
		C 344.128,303.328, 335.2,296.928, 335.2,288z" data-tags="previous, media control" />
<glyph unicode="&#xe017;" d="M 586.272,303.328l-238.784,158.4C 329.152,473.952, 314.112,464.96, 314.112,441.76l0-307.488 c0-23.232, 15.040-32.224, 33.376-19.968l 238.784,158.368
		c0,0, 8.928,6.4, 8.928,15.328S 586.272,303.328, 586.272,303.328z M 295.872,303.328L 65.344,461.76C 47.040,473.952, 32.032,464.96, 32.032,441.76l0-307.488 
		c0-23.232, 15.008-32.224, 33.344-19.968l 230.528,158.368c0,0, 8.928,6.4, 8.928,15.328S 295.872,303.328, 295.872,303.328z" data-tags="next, media control" />
<glyph unicode="&#xe01a;" d="M 559.963,212.061c-0.007,0.441-0.019,0.876-0.026,1.316c-0.020,0.892-0.044,1.784-0.074,2.675C 553.594,413.332, 320,608, 320,608
		S 86.404,413.332, 80.138,216.049c-0.027-0.894-0.055-1.782-0.075-2.676c-0.009-0.44-0.019-0.876-0.026-1.316
		c-0.022-1.35-0.035-2.702-0.035-4.060c0-1.48, 0.018-2.951, 0.044-4.424c 0.003-0.122, 0.004-0.244, 0.009-0.366
		C 82.602,72.874, 189.051-32, 320-32c 130.947,0, 237.395,104.874, 239.949,235.21c 0.003,0.122, 0.005,0.245, 0.006,0.366
		c 0.026,1.472, 0.045,2.946, 0.045,4.424C 560,209.358, 559.985,210.71, 559.963,212.061z M 479.969,205.038l-0.005-0.254
		c-0.824-42.054-17.832-81.459-47.891-110.968C 401.984,64.271, 362.179,48, 320,48c-7.789,0-15.496,0.559-23.078,1.649
		c 86.91,51.779, 145.135,146.69, 145.135,255.201c0,12.16-0.737,24.146-2.157,35.925c 25.17-46.212, 38.79-89.25, 40.001-127.266
		l 0.003-0.090c 0.020-0.593, 0.033-1.182, 0.049-1.777l 0.018-0.905C 479.988,209.826, 480,208.913, 480,208
		C 480,207.010, 479.988,206.024, 479.969,205.038z" data-tags="droplet, colors, water" />
<glyph unicode="&#xf042;" d="M 274,562.286q 74.643,0 137.679-36.786t 99.821-99.821t 36.786-137.679t-36.786-137.679t-99.821-99.821t-137.679-36.786t-137.679,36.786t-99.821,99.821t-36.786,137.679t 36.786,137.679t 99.821,99.821t 137.679,36.786zM 91.143,288q0-37.143 14.464-70.893t 39.107-58.393t 58.393-39.107t 70.893-14.464l0,365.714 q-37.143,0 -70.893-14.464 t-58.393-39.107t-39.107-58.393t-14.464-70.893z" horiz-adv-x="548" data-tags="adjust, contrast" />
<glyph unicode="&#xe018;" d="M 608,313.6c-5.824,0-25.568,0-31.36,0c-17.664,0-32-11.456-32-25.6s 14.336-25.6, 32-25.6c 5.824,0, 25.568,0, 31.36,0c 17.696,0, 32,11.456, 32,25.6
	S 625.696,313.6, 608,313.6z M 320,464C 222.4,464, 144,385.6, 144,288c0-97.632, 78.4-176, 176-176c 97.632,0, 176,78.368, 176,176
	C 496,385.6, 417.632,464, 320,464z M 320,160c-70.72,0-128,57.28-128,128c0,70.688, 57.28,128, 128,128s 128-57.312, 128-128C 448,217.28, 390.72,160, 320,160z M 95.328,288
	c0,14.144-13.664,25.6-31.328,25.6c-5.92,0-26.112,0-32,0c-17.664,0-32-11.456-32-25.6s 14.336-25.6, 32-25.6c 5.888,0, 26.080,0, 32,0
	C 81.664,262.4, 95.328,273.856, 95.328,288z M 320,512c 14.112,0, 25.6,14.336, 25.6,32c0,5.856,0,26.144,0,32c0,17.664-11.456,32-25.6,32S 294.4,593.664, 294.4,576
	c0-5.856,0-26.144,0-32C 294.4,526.336, 305.888,512, 320,512z M 320,64c-14.112,0-25.6-14.336-25.6-32c0-5.856,0-26.144,0-32c0-17.696, 11.456-32, 25.6-32
	s 25.6,14.304, 25.6,32c0,5.856,0,26.144,0,32C 345.6,49.664, 334.112,64, 320,64z M 555.68,487.488c 12.512,12.512, 14.528,30.752, 4.544,40.736
	s-28.224,7.968-40.704-4.544c-3.424-3.456-18.944-18.944-22.4-22.4c-12.512-12.512-14.528-30.72-4.544-40.704s 28.256-8, 40.736,4.512
	C 536.736,468.544, 552.256,484.032, 555.68,487.488z M 106.688,110.912c-3.456-3.456-18.944-18.976-22.4-22.4c-12.48-12.512-14.496-30.72-4.512-40.704
	c 9.984-9.984, 28.224-7.968, 40.704,4.512c 3.456,3.424, 18.976,18.944, 22.4,22.4c 12.512,12.512, 14.528,30.72, 4.512,40.704
	S 119.168,123.36, 106.688,110.912z M 120.512,523.712C 108,536.192, 89.792,538.24, 79.776,528.224S 71.808,500, 84.288,487.488
	c 3.456-3.456, 18.944-18.944, 22.4-22.4c 12.512-12.48, 30.72-14.528, 40.704-4.512s 8,28.224-4.512,40.704C 139.456,504.736, 123.968,520.256, 120.512,523.712z
	 M 497.088,74.688c 3.456-3.456, 18.976-18.976, 22.4-22.4c 12.512-12.48, 30.752-14.496, 40.736-4.512c 9.984,9.984, 7.936,28.224-4.544,40.704
	c-3.456,3.424-18.976,18.944-22.4,22.4c-12.512,12.48-30.752,14.496-40.736,4.512S 484.64,87.2, 497.088,74.688z" data-tags="sun, brightness, lightness" />
<glyph unicode="&#xf057;" d="M 410.071,207.286q0,9.286 -6.786,16.071l-64.643,64.643l 64.643,64.643q 6.786,6.786 6.786,16.071q0,9.643 -6.786,16.429l-32.143,32.143q-6.786,6.786 -16.429,6.786q-9.286,0 -16.071-6.786l-64.643-64.643l-64.643,64.643q-6.786,6.786 -16.071,6.786q-9.643,0 -16.429-6.786l-32.143-32.143q-6.786-6.786 -6.786-16.429q0-9.286 6.786-16.071l 64.643-64.643l-64.643-64.643q-6.786-6.786 -6.786-16.071q0-9.643 6.786-16.429l 32.143-32.143q 6.786-6.786 16.429-6.786 q 9.286,0 16.071,6.786l 64.643,64.643l 64.643-64.643q 6.786-6.786 16.071-6.786q 9.643,0 16.429,6.786l 32.143,32.143q 6.786,6.786 6.786,16.429zM 548.285,288q0-74.643 -36.786-137.679t-99.821-99.821t-137.679-36.786t-137.679,36.786t-99.821,99.821t-36.786,137.679t 36.786,137.679t 99.821,99.821t 137.679,36.786t 137.679-36.786t 99.821-99.821t 36.786-137.679z" horiz-adv-x="548" data-tags="remove-sign, cancel, remove, delete, close, sign" />
<glyph unicode="&#xf00d;" d="M 463.142,135.857q0-14.286 -10-24.286l-48.571-48.571q-10-10 -24.286-10t-24.286,10l-105,105l-105-105q-10-10 -24.286-10t-24.286,10l-48.571,48.571q-10,10 -10,24.286t 10,24.286l 105,105l-105,105q-10,10 -10,24.286t 10,24.286l 48.571,48.571q 10,10 24.286,10t 24.286-10l 105-105l 105,105q 10,10 24.286,10t 24.286-10l 48.571-48.571q 10-10 10-24.286 t-10-24.286l-105-105l 105-105q 10-10 10-24.286z" horiz-adv-x="502" data-tags="remove, cancel, close, delete, mutiply" />
<glyph unicode="&#xe037;" d="M 520,448l-120,0 L 400,488 L 280,608L0,608 l0-480 l 240,0 l0-160 l 400,0 L 640,328 L 520,448z M 520,391.431L 583.431,328L 520,328 L 520,391.431 z M 280,551.431L 343.431,488L 280,488 
	L 280,551.431 z M 40,568l 200,0 l0-120 l 120,0 l0-280 L 40,168 L 40,568 z M 600,8L 280,8 l0,120 l 120,0 L 400,408 l 80,0 l0-120 l 120,0 L 600,8 z" data-tags="copy, duplicate, files, pages, papers, documents" />
<glyph unicode="&#x20;" horiz-adv-x="320" />
</font>
</defs>
</svg>
